TREŚĆ TYLKO DLA DOROSŁYCH


Strona, którą chcesz odwiedzić została uznana przez administratora lub użytkowników za zawierającą treści przeznaczone wyłącznie dla osób pełnoletnich. Strona ta zawierać może w szczególności treści o tematyce erotycznej, a także treści drastyczne lub inne przeznaczone wyłącznie dla osób pełnoletnich. Decydując się na zapoznanie z treścią tej strony, czynisz to na własną odpowiedzialność.

Korzystanie ze strony zawierającej treści przeznaczone wyłącznie dla osób pełnoletnich następuje na ryzyko osoby decydującej się zapoznać z takimi treściami.

Oświadczam, że mam ukończone 18 lat, wchodzę na własną odpowiedzialność i zapoznałem się z regulaminem portalu AJO.PL, wyrażam zgodę na jego brzmienie i zobowiązuję się do jego przestrzegania.

zapamiętaj moje ustawienia

The workout - Matt Bird and Tina Kay

A A A
Platynowy Użytkownik
Avatar a0k0sz
reputacja: 0
posty: 2011
offline
02.01.18 11:21 | #3167324 | (link) | zgłoś naruszenie

Format : MPEG-4
Format profile : Base Media
Codec ID : isom (isom/iso2/avc1/mp41)
File size : 1 001 MiB
Duration : 20 min 26 s
Overall bit rate : 6 846 kb/s
Writing application : Lavf56.40.101
Video
ID : 1
Format : AVC
Format/Info : Advanced Video Codec
Format profile : High@L4
Format settings : CABAC / 4 Ref Frames
Format settings, CABAC : Yes
Format settings, ReFrames : 4 frames
Codec ID : avc1
Codec ID/Info : Advanced Video Coding
Duration : 20 min 26 s
Bit rate : 6 646 kb/s
Width : 1 920 pixels
Height : 1 080 pixels
Display aspect ratio : 16:9
Frame rate mode : Constant
Frame rate : 30.000 FPS
Color space : YUV
Chroma subsampling : 4:2:0
Bit depth : 8 bits
Scan type : Progressive
Bits/(Pixel*Frame) : 0.107
Stream size : 971 MiB (97%)
Audio
ID : 2
Format : AAC
Format/Info : Advanced Audio Codec
Format profile : LC
Codec ID : mp4a-40-2
Duration : 20 min 26 s
Duration_LastFrame : -6 ms
Bit rate mode : Constant
Bit rate : 192 kb/s
Channel(s) : 2 channels
Channel positions : Front: L R
Sampling rate : 44.1 kHz
Frame rate : 43.066 FPS (1024 SPF)
Compression mode : Lossy
Stream size : 28.1 MiB (3%)
Language : English
Default : Yes
Alternate group : 1
Content : mp4
Compress : no/rar
Data recovery : no
Password : no

Kod:

Tylko dla zarejestrowanych. Chcesz mieć pełny dostęp do Ajo.pl?
Zarejestruj się i dołącz do naszego grona wirtualnych przyjaciół!

Kod:

Tylko dla zarejestrowanych. Chcesz mieć pełny dostęp do Ajo.pl?
Zarejestruj się i dołącz do naszego grona wirtualnych przyjaciół!

Kod:

Tylko dla zarejestrowanych. Chcesz mieć pełny dostęp do Ajo.pl?
Zarejestruj się i dołącz do naszego grona wirtualnych przyjaciół!

Kod:

Tylko dla zarejestrowanych. Chcesz mieć pełny dostęp do Ajo.pl?
Zarejestruj się i dołącz do naszego grona wirtualnych przyjaciół!

Kod:

Tylko dla zarejestrowanych. Chcesz mieć pełny dostęp do Ajo.pl?
Zarejestruj się i dołącz do naszego grona wirtualnych przyjaciół!

AJO.pl | INDATA Software Limited Korzystanie z serwisu oznacza akceptację regulaminu . Polityka prywatności Regulamin FAQ Reklama Współpraca Kontakt
login
hasło
|
Nie masz profilu? - zarejestruj się i zacznij w pełni korzystać z sieci!